<?xml version="1.0" standalone="no"?>
<!DOCTYPE svg PUBLIC "-//W3C//DTD SVG 1.1//EN" "http://www.w3.org/Graphics/SVG/1.1/DTD/svg11.dtd" >
<svg xmlns="http://www.w3.org/2000/svg">
<metadata>Generated by IcoMoon</metadata>
<defs>
<font id="theme-icons" horiz-adv-x="1024">
<font-face units-per-em="1024" ascent="960" descent="-64" />
<missing-glyph horiz-adv-x="1024" />
<glyph unicode="&#x20;" horiz-adv-x="512" d="" />
<glyph unicode="&#xe900;" glyph-name="arrow-left" d="M18.62 471.058h-0.634c-1.034-1.143-2.072-2.382-3.063-3.66l-0.108-0.145 3.805 4.439c-11.298-11.445-18.275-27.179-18.275-44.542 0-2.854 0.188-5.663 0.554-8.417l-0.035 0.323-0.634 7.61c0.255-17.408 7.487-33.078 19.014-44.381l0.010-0.010 447.72-448.988c11.523-11.523 27.442-18.651 45.026-18.651 35.167 0 63.676 28.508 63.676 63.676 0 17.584-7.128 33.502-18.651 45.026v0l-340.546 339.912h743.875c35.024 0 63.417 28.392 63.417 63.417s-28.392 63.417-63.417 63.417v0h-743.875l340.546 339.912c11.367 11.457 18.391 27.238 18.391 44.659 0 15.076-5.26 28.923-14.047 39.806l0.095-0.12-4.439 5.707c-11.494 11.586-27.423 18.759-45.026 18.759s-33.531-7.172-45.021-18.754l-0.004-0.004-448.354-448.988z" />
<glyph unicode="&#xe901;" glyph-name="arrow-right" d="M1005.38 471.058h0.634c1.034-1.143 2.072-2.382 3.063-3.66l0.108-0.145-3.805 4.439c11.298-11.445 18.275-27.179 18.275-44.542 0-2.854-0.188-5.663-0.554-8.417l0.035 0.323 0.634 7.61c-0.255-17.408-7.487-33.078-19.014-44.381l-0.010-0.010-447.72-448.988c-11.523-11.523-27.442-18.651-45.026-18.651-35.167 0-63.676 28.508-63.676 63.676 0 17.584 7.128 33.502 18.651 45.026v0l340.546 339.912h-743.875c-35.024 0-63.417 28.392-63.417 63.417s28.392 63.417 63.417 63.417v0h743.875l-340.546 339.912c-11.367 11.457-18.391 27.238-18.391 44.659 0 15.076 5.26 28.923 14.047 39.806l-0.095-0.12 4.439 5.707c11.494 11.586 27.423 18.759 45.026 18.759s33.531-7.172 45.021-18.754l448.358-448.358z" />
<glyph unicode="&#xe902;" glyph-name="arrow-up" d="M341.333-85.328h341.334v426.667h341.334l-512 597.333-512-597.333h341.334z" />
<glyph unicode="&#xe903;" glyph-name="coin" d="M511.899 938.667c282.736-0.357 511.8-229.641 511.8-512.426 0-141.241-57.143-269.136-149.572-361.826l0.012 0.012c-92.634-92.534-220.552-149.76-361.837-149.76-282.77 0-512 229.23-512 512 0 282.628 229.001 511.77 511.575 512h0.022zM493.552 750.934c-10.988-6.429-18.269-18.142-18.347-31.562v-73.398h-54.613c-70.692 0-128-57.308-128-128s57.308-128 128-128h54.613v-109.653h-109.653c-1.185 0.136-2.559 0.213-3.951 0.213-20.265 0-36.693-16.428-36.693-36.693s16.428-36.693 36.693-36.693c1.392 0 2.766 0.077 4.117 0.228l-0.166-0.015h109.653v-73.387c0-20.265 16.428-36.693 36.693-36.693s36.693 16.428 36.693 36.693v0 73.387h54.613c70.692 0 128 57.308 128 128s-57.308 128-128 128v0h-54.613v109.653h109.653c1.185-0.136 2.559-0.213 3.951-0.213 20.265 0 36.693 16.428 36.693 36.693s-16.428 36.693-36.693 36.693c-1.392 0-2.766-0.077-4.117-0.228l0.166 0.015h-109.653v73.387c-0.116 20.177-16.499 36.49-36.693 36.49-6.755 0-13.084-1.825-18.52-5.010l0.173 0.094zM603.206 389.974c28.242-2.568 50.199-26.133 50.199-54.827s-21.956-52.259-49.984-54.811l-0.214-0.016h-54.613v109.653zM475.206 573.014v-109.653h-54.613c-28.242 2.568-50.199 26.133-50.199 54.827s21.956 52.259 49.984 54.811l0.214 0.016z" />
<glyph unicode="&#xe904;" glyph-name="email" d="M1011.351 729.35c8.132-15.059 12.649-32.226 12.649-49.694v-505.977c0-28.612-11.444-56.32-32.226-76.8-19.924-19.554-47.253-31.624-77.4-31.624-0.001 0-0.001 0-0.002 0h-804.744c-28.913 0-56.922 11.444-77.402 31.624-19.878 19.555-32.202 46.736-32.226 76.796v505.981c0 17.468 4.518 34.334 12.649 49.694l374.664-345.45c32.729-30.049 76.557-48.467 124.687-48.467s91.958 18.417 124.822 48.588l-0.135-0.122zM914.372 788.079c15.059 0 29.817-3.012 43.671-9.035l-371.050-342.438c-19.667-18.116-46.033-29.224-74.993-29.224s-55.326 11.108-75.071 29.295l0.078-0.071-370.749 342.438c13.854 6.023 28.612 9.035 43.671 9.035z" />
<glyph unicode="&#xe905;" glyph-name="goal" d="M354.251 871.106c100.467 22.368 205.104 9.099 296.85-37.153 92.461-47.358 164.908-122.742 207.354-214.805l1.161-2.81h-28.054l-75.066-75.823h-28.434c-44.33 112.18-151.821 190.095-277.51 190.095-69.182 0-132.85-23.605-183.391-63.201l0.65 0.49c-72.422-56.21-118.582-143.274-118.582-241.119s46.16-184.909 117.891-240.604l0.69-0.515c49.89-39.106 113.559-62.711 182.74-62.711 125.689 0 233.179 77.915 276.807 188.080l0.704 2.014h28.434l75.066-75.823h27.676c-43.515-94.822-115.827-170.192-205.598-216.426l-2.538-1.188c-58.561-30.253-127.818-47.99-201.219-47.99-141.522 0-267.644 65.939-349.318 168.77l-0.703 0.917c-62.222 77.528-99.863 177.107-99.863 285.476s37.64 207.948 100.559 286.375l-0.697-0.898c63.026 78.863 150.766 135.628 251.369 158.649l3.020 0.581zM304.966 601.174c38.755 33.082 89.436 53.21 144.82 53.21 83.178 0 155.752-45.401 194.293-112.774l0.578-1.096h-194.488c-40.187 0-77.34-21.61-97.433-56.868-9.473-16.34-15.064-35.951-15.064-56.868s5.591-40.528 15.359-57.421l-0.295 0.554c20.093-35.258 57.247-56.868 97.433-56.868h194.488c-39.118-68.468-111.692-113.87-194.87-113.87-55.384 0-106.066 20.129-145.131 53.469l0.311-0.259c-49.564 42.199-80.797 104.65-80.797 174.395s31.233 132.195 80.474 174.127l0.323 0.267zM986.621 540.515c20.708-0.3 37.379-17.157 37.379-37.908 0-10.338-4.137-19.709-10.847-26.548l0.006 0.006-21.989-22.747c-6.702-6.833-10.838-16.203-10.838-26.539s4.136-19.706 10.843-26.545l-0.006 0.006 21.989-22.747c6.703-6.833 10.841-16.205 10.841-26.542 0-20.751-16.671-37.608-37.351-37.908h-108.077c-10.423 0.062-19.819 4.407-26.528 11.362l-0.011 0.012-64.45 64.45h-337.415c-13.893 0.004-26.021 7.555-32.508 18.775l-0.097 0.181c-6.445 11.753-6.445 26.539 0 37.912 6.824 11.753 18.956 18.956 32.604 18.956h337.415l64.45 64.45c6.824 7.582 16.302 11.374 26.539 11.374z" />
<glyph unicode="&#xe906;" glyph-name="growth" d="M950.93 536.292c40.097 0 72.942-40.523 72.942-72.942v-476.040c0-40.097-32.845-72.942-72.942-72.942h-146.31c-40.523 0-73.369 40.523-73.369 72.942v476.040c0 40.097 32.845 72.942 73.369 72.942zM219.381 243.673c40.523 0 73.369-40.097 73.369-72.942v-182.994c0-40.097-32.845-72.942-73.369-72.942h-146.31c-40.097 0-72.942 40.523-72.942 72.942v182.994c0 40.523 32.845 72.942 72.942 72.942zM584.942 353.725c40.523 0 73.369-40.523 73.369-73.369v-292.619c0-40.097-32.845-72.942-73.369-72.942h-145.456c-40.523 0-73.369 40.523-73.369 72.942v292.619c0 40.523 32.845 73.369 73.369 73.369zM914.246 938.538c20.26 0 36.684-16.424 36.684-36.684v-182.567c0-20.26-16.424-36.684-36.684-36.684s-36.684 16.424-36.684 36.684v90.43c-192.338-197.844-436.904-343.943-711.452-416.063l-10.713-2.391c-3.666-1.35-7.901-2.129-12.317-2.129-20.26 0-36.684 16.424-36.684 36.684 0 18.284 13.377 33.444 30.877 36.227l0.209 0.027c135.386 35.066 254.035 83.988 363.801 146.684l-7.198-3.786c123.702 69.955 236.74 157.827 335.276 260.202h-98.108c-20.26 0-36.684 16.424-36.684 36.684s16.424 36.684 36.684 36.684v0z" />
<glyph unicode="&#xe907;" glyph-name="marketing" d="M0.005 627.921v-220.748c0.392-60.454 49.094-109.404 109.416-110.196l0.075-0.001h183.662v441.494h-183.662c-0.002 0-0.003 0-0.005 0-60.47 0-109.491-49.021-109.491-109.491 0-0.373 0.002-0.745 0.006-1.117l-0.001 0.057zM683.439 831.361c-17.225 12.047-38.61 19.251-61.678 19.251-14.688 0-28.693-2.92-41.469-8.212l0.719 0.264-215.45-86.533v-476.814l215.45-86.533c11.996-4.859 25.909-7.678 40.48-7.678 30.538 0 58.185 12.383 78.193 32.401l0.001 0.001c20.486 20.486 31.788 48.741 31.788 77.703v445.38c0 36.732-17.66 70.639-48.035 91.125zM73.116 227.397v-114.435c0-39.205 21.192-75.584 55.099-95.363 15.789-9.35 34.8-14.876 55.101-14.876 60.47 0 109.491 49.021 109.491 109.491 0 0.262-0.001 0.526-0.002 0.788v-0.041 110.551h-183.309c-12.362 0-24.724 1.060-36.732 3.532zM987.894 554.456h-109.844c-13.069 0-25.077-7.064-31.788-18.366-2.94-5.192-4.671-11.403-4.671-18.018 0-20.261 16.249-36.728 36.426-37.080l0.033-0.001h109.491c13.069 0 25.43 7.064 31.788 18.366 2.94 5.192 4.671 11.403 4.671 18.018 0 20.261-16.249 36.728-36.426 37.080l-0.033 0.001zM878.049 738.471c5.651 0 11.302 1.413 16.247 3.885l73.112 36.732c12.248 6.127 20.51 18.577 20.51 32.956 0 6.013-1.445 11.689-4.007 16.698l0.096-0.208c-6.127 12.248-18.577 20.51-32.956 20.51-6.013 0-11.689-1.445-16.698-4.007l0.208 0.096-72.758-37.086c-12.127-6.168-20.291-18.554-20.291-32.847 0-20.287 16.446-36.732 36.732-36.732 0.056 0 0.112 0 0.168 0h-0.008zM967.408 256.359l-73.112 36.732c-4.872 2.587-10.653 4.106-16.789 4.106-14.256 0-26.597-8.201-32.563-20.142l-0.095-0.21c-2.391-4.766-3.79-10.386-3.79-16.333 0-14.393 8.199-26.87 20.182-33.018l0.209-0.098 73.465-36.732c4.781-2.506 10.445-3.976 16.452-3.976 11.505 0 21.75 5.392 28.345 13.788l0.059 0.078c4.882 6.22 7.829 14.161 7.829 22.791 0 14.314-8.11 26.735-19.986 32.917l-0.205 0.098z" />
<glyph unicode="&#xe908;" glyph-name="quote" d="M164.805 242.364l-0.054-0.049c-17.018-15.83-27.664-38.418-27.664-63.494 0-14.945 3.781-29.006 10.213-40.822l0.208-0.409c10.68-19.218 29.038-33.581 51.479-39.058l-0.569 0.112c6.162-1.435 12.584-2.194 19.183-2.194 15.995 0 30.948 4.459 43.312 11.991 82.402 48.219 136.401 123.521 169.428 197.666 33.027 73.815 47.559 151.428 47.559 211.868v0.003c-0.023 131.949-106.995 238.908-238.95 238.908-131.968 0-238.95-106.981-238.95-238.95 0-118.616 86.429-217.046 201.134-235.939l-0.584-0.757c-10.956-13.716-22.845-26.652-35.745-38.875zM710.905 242.364l-0.056-0.051c-17.081-15.834-27.772-38.465-27.772-63.594 0-14.904 3.761-28.929 10.158-40.72l0.208-0.408c10.714-19.252 29.137-33.624 51.644-39.059l-0.569 0.112c6.162-1.435 12.584-2.194 19.183-2.194 15.995 0 30.948 4.459 43.312 11.991 82.402 48.219 136.401 123.521 169.428 197.666 33.027 73.815 47.559 151.428 47.559 211.868v0.003c-0.023 131.949-106.995 238.908-238.95 238.908-131.968 0-238.95-106.981-238.95-238.95 0-118.616 86.429-217.046 201.134-235.939-9.578-12.22-21.798-25.596-36.33-39.632z" />
<glyph unicode="&#xe909;" glyph-name="rocket" d="M149.33 166.977v-215.47c-0.004-0.201-0.006-0.437-0.006-0.674 0-14.049 8.083-26.209 19.852-32.085l0.208-0.094c4.693-2.56 10.667-4.267 16.213-3.84 7.68 0 15.36 2.56 21.76 7.253l14.507 11.093v415.578l-17.067-21.76c-34.572-43.518-55.468-99.255-55.468-159.874 0-0.045 0-0.090 0-0.135v0.007zM819.205 326.979l-17.067 21.333v-415.152l14.507-11.093c6.4-4.267 14.080-7.253 21.76-7.253 5.547 0 11.52 1.28 16.213 4.267 11.964 5.854 20.057 17.937 20.057 31.911 0 0.181-0.001 0.363-0.004 0.543v-0.027 215.043c0 58.454-19.627 114.774-55.468 160.002zM706.989 682.823c14.933-52.481 22.613-106.668 22.613-160.855v-460.806c0-9.813-3.84-19.2-10.667-25.6-6.491-6.726-15.538-10.947-25.573-11.093h-145.096v-72.961c0-12.8-6.827-25.6-18.347-32-5.191-3.096-11.449-4.926-18.133-4.926s-12.942 1.83-18.298 5.017l0.165-0.091c-10.807 6.516-17.923 18.192-17.923 31.529 0 0.166 0.001 0.331 0.003 0.496v-0.025 72.961h-145.069c-0.001 0-0.002 0-0.003 0-20.030 0-36.267 16.237-36.267 36.267 0 0.15 0.001 0.3 0.003 0.449v-0.023 460.806c0 54.188 7.68 108.374 22.613 160.855zM512.001 573.169c-0.129 0.001-0.282 0.001-0.434 0.001-59.854 0-108.374-48.521-108.374-108.374 0-0.45 0.003-0.9 0.008-1.349l-0.001 0.068c0-29.013 11.52-57.174 32-77.654 19.67-19.977 47.010-32.354 77.24-32.354 59.854 0 108.374 48.521 108.374 108.374 0 0.575-0.004 1.148-0.013 1.721l0.001-0.086c0 29.013-11.52 56.748-32 77.654-19.617 19.745-46.779 31.975-76.796 32h-0.005zM512.001 499.781c20.053 0 36.267-16.213 36.267-36.267s-16.213-36.693-36.267-36.693-36.267 16.213-36.267 36.693 16.213 36.267 36.267 36.267zM599.042 896.586c-20.577 25.786-52.004 42.166-87.254 42.166s-66.677-16.379-87.082-41.942l-0.173-0.224c-33.707-42.668-61.441-90.028-82.348-140.802h339.631c-21.333 50.774-48.641 98.134-82.774 140.802z" />
<glyph unicode="&#xe90a;" glyph-name="search-marketing" d="M846.415 214.952l146.765-152.312c15.29-15.918 24.706-37.578 24.706-61.437s-9.415-45.519-24.734-61.467l0.028 0.030c-14.931-15.533-35.883-25.184-59.090-25.184s-44.16 9.65-59.064 25.157l-0.026 0.027-146.765 152.739zM748.713 315.64l79.783-79.356-121.166-120.74-79.356 79.356 16.639 11.946c35.457 26.16 65.861 56.428 91.34 90.586l0.815 1.142zM388.626 938.539c3.872 0.136 8.421 0.213 12.988 0.213 218.428 0 395.498-177.070 395.498-395.498s-177.070-395.498-395.498-395.498c-4.568 0-9.117 0.077-13.646 0.231l0.658-0.018c-212.767 7.21-382.51 181.425-382.51 395.285s169.743 388.075 381.852 395.267l0.658 0.018z" />
<glyph unicode="&#xe90b;" glyph-name="amazon" d="M8.499 158.712c0.211 0.019 0.456 0.029 0.704 0.029 2.401 0 4.57-0.991 6.12-2.587l0.002-0.002 38.401-25.601c10.634-6.857 31.551-19.028 52.678-30.865l11.324-5.829c14.934-7.253 29.868-15.361 41.814-22.614 12.8-6.4 26.881-11.947 40.108-17.921l52.055-21.334c20.908-8.107 42.668-14.080 64.429-18.348l58.882-11.093c8.107-1.707 17.068-2.133 25.601-2.987 14.934-1.28 29.868-3.413 44.375-3.413l64.855-0.427c9.387 0 18.348 1.28 27.734 1.28 13.227 0.853 26.881 0.853 39.681 2.987 12.8 1.707 25.601 5.12 38.401 8.533 25.652 4.843 47.167 10.308 68.172 16.919l-4.17-1.132c26.454 7.253 52.482 16.214 78.083 26.881l38.401 16.214 38.401 16.641c5.547 2.56 10.667 5.547 16.641 7.68 5.547 1.28 11.093 0 14.934-4.267 1.239-1.936 1.975-4.298 1.975-6.831 0-3.282-1.235-6.275-3.266-8.541l0.011 0.012c-11.947-11.52-23.468-22.614-36.268-33.708-8.533-7.253-17.068-14.507-26.881-20.908l-8.533-5.973-28.161-17.068c-14.507-8.533-29.014-17.068-43.949-24.748-8.786-4.231-20.069-8.847-31.622-12.888l-2.513-0.765-13.227-5.12c-8.96-3.413-17.921-6.827-27.308-9.387-30.784-9.193-68.047-17.111-106.207-22.192l-3.877-0.422c-21.761-2.56-44.375-2.987-66.562-4.267v0.853c-13.227 0-27.308-1.28-40.108 0-20.908 1.707-41.388 5.973-62.295 8.107-25.656 4.165-48.476 10.399-70.258 18.733l2.416-0.812c-13.747 4.5-24.762 8.836-35.489 13.695l2.208-0.895-17.921 7.68c-11.947 5.12-23.894 10.24-35.841 16.214-18.348 8.96-35.414 19.628-52.909 30.294-40.19 25.058-75.096 52.23-106.929 82.594l0.258-0.245-19.628 18.348c-10.050 10.359-20.079 21.198-29.847 32.27l-0.874 1.011c-1.561 1.672-2.52 3.924-2.52 6.4s0.959 4.728 2.525 6.405l-0.005-0.005c1.398 1.876 3.515 3.149 5.936 3.41l0.038 0.003zM956.585 213.328c12.8 0 26.454-1.28 39.254-3.413 16.214-2.133 28.161-16.214 28.161-32.428-1.088-28.708-6.158-55.852-14.675-81.421l0.594 2.058c-7.253-17.068-15.788-33.281-25.601-48.642-11.093-14.934-23.041-29.868-35.841-43.521-2.357-2.5-5.195-4.517-8.369-5.909l-0.164-0.064c-1.853-0.547-3.983-0.862-6.186-0.862-0.225 0-0.45 0.003-0.674 0.010l0.033-0.001c-0.241 1.154-0.379 2.481-0.379 3.84s0.138 2.686 0.401 3.967l-0.022-0.127 11.52 28.161 19.628 61.015c3.413 11.093 5.12 23.041 8.96 34.134 0.533 2.141 0.838 4.598 0.838 7.127 0 15.457-11.414 28.247-26.274 30.401l-0.166 0.020-42.668 3.413c-21.334-1.28-41.388-2.133-61.442-4.267-9.387-0.427-18.348-2.987-27.734-4.267-3.105 0.163-6.016 0.775-8.741 1.773l0.207-0.066 0.853 2.56c0.853 2.133 1.707 4.267 3.413 5.973 39.397 25.465 87.542 40.6 139.221 40.6 2.057 0 4.109-0.024 6.155-0.072l-0.304 0.006zM516.25 938.685l14.507-0.427c65.818-3.477 125.918-25.322 176.020-60.454l-1.081 0.718c30.819-22.996 53.748-55.043 64.953-92.174l0.329-1.269c7.253-23.468 10.667-47.789 9.813-72.535v-285.023c0-10.667 1.28-21.334 2.987-32.001 3.413-22.614 12.373-43.949 25.601-62.295l8.533-11.093 15.361-23.468c5.547-7.253 6.827-17.068 4.267-25.601-0.814-2.715-2.294-5.024-4.255-6.816l-0.011-0.010-101.976-86.19c-4.525-3.73-10.381-5.991-16.767-5.991-7.49 0-14.253 3.113-19.067 8.116l-0.008 0.009c-25.767 25.066-49.051 52.413-69.617 81.802l-1.212 1.828c-17.494-14.934-34.134-29.868-51.202-43.949-34.561-25.601-75.096-42.668-117.764-49.069-50.349-10.667-102.831-4.267-149.338 18.774-42.241 20.908-74.67 57.602-90.883 102.403-10.516 24.73-16.63 53.494-16.63 83.686 0 52.777 18.679 101.191 49.786 138.993l-0.302-0.378c26.864 37.078 63.394 65.64 105.918 82.225l1.606 0.552c71.137 23.528 153.025 37.106 238.082 37.121h4.7l0.427 7.253v66.989c0.021 0.686 0.033 1.493 0.033 2.302 0 33.22-19.981 61.773-48.58 74.297l-0.521 0.203c-20.054 9.387-42.668 11.947-64.002 7.68-47.223-5.416-84.906-40.497-94.177-85.919l-0.119-0.698c-3.848-10.442-13.712-17.754-25.284-17.754-1.316 0-2.609 0.095-3.875 0.277l0.144-0.017-48.215 4.267-64.429 5.547c-13.249 0.237-23.899 11.033-23.899 24.317 0 2.278 0.313 4.484 0.899 6.575l-0.041-0.171c14.454 72.518 60.292 132.098 122.443 164.929l1.294 0.623c43.704 24.592 95.604 39.852 150.891 41.798l0.581 0.016h14.507zM599.026 535.472h-4.267l-79.79-4.267c-21.334-1.707-42.241-8.533-59.735-20.054-26.028-14.507-45.655-37.548-55.895-65.282-8.533-25.601-9.387-53.335-2.56-79.363 3.413-23.041 17.494-43.521 38.401-55.042 8.533-5.12 18.774-8.533 28.588-11.52 5.802-1.571 12.463-2.474 19.337-2.474 19.242 0 36.831 7.076 50.308 18.769l-0.095-0.081c16.214 12.8 29.868 29.014 40.961 46.935 16.641 25.601 25.174 55.895 24.748 86.616v85.336z" />
<glyph unicode="&#xe90c;" glyph-name="check" d="M512 938.667c282.77 0 512-229.23 512-512s-229.23-512-512-512v0c-282.77 0-512 229.23-512 512s229.23 512 512 512v0zM684.8 682.667c-20.053 0-38.827-10.667-49.493-28.16l-165.973-280.32-85.333 103.68c-10.565 12.893-26.489 21.055-44.32 21.055-13.072 0-25.119-4.387-34.75-11.769l0.136 0.1c-14.093-10.868-23.083-27.759-23.083-46.748 0-12.152 3.681-23.444 9.99-32.822l-0.133 0.211 137.813-211.2c10.342-15.83 27.977-26.144 48.021-26.144 22.122 0 41.309 12.564 50.816 30.945l0.15 0.319 207.36 395.093c4.254 7.939 6.753 17.368 6.753 27.38 0 21.476-11.497 40.266-28.672 50.551l-0.268 0.149c-8.533 5.12-18.773 7.68-28.587 7.68z" />
<glyph unicode="&#xe90d;" glyph-name="google" d="M850.856 773.245v115.171c0 0.001 0 0.002 0 0.004 0 13.514-10.835 24.497-24.292 24.737h-217.567c-39.417 15.124-84.992 24.409-132.578 25.584l-0.508 0.010c-0.212 0-0.464 0.001-0.715 0.001-77.672 0-149.358-25.63-207.063-68.894l0.896 0.643c-60.101-44.097-98.68-114.464-98.68-193.842 0-2.935 0.053-5.859 0.157-8.768l-0.012 0.421c-0.023-1.251-0.036-2.726-0.036-4.204 0-86.125 44.468-161.864 111.697-205.511l0.951-0.579c-19.886-14.105-37.018-30.288-51.655-48.557l-0.385-0.497c-24.314-30.285-39.243-67.396-39.243-112.612-0.004-0.403-0.006-0.878-0.006-1.355 0-40.429 15.038-77.344 39.826-105.459l-0.151 0.174c-11.517-8.105-22.181-17.063-31.565-27.726-17.915-20.902-29.433-46.921-29.433-79.34 0-82.326 58.865-124.981 131.38-146.31 65.69-20.048 142.044-21.755 189.392-21.755 41.802 0 85.738 2.986 128.82 11.517 46.993 8.548 88.942 24.292 126.866 46.22l-1.885-1.006c33.742 19.413 61.044 46.578 80.066 79.167l0.554 1.027c17.598 31.245 27.964 68.594 27.964 108.364 0 21.559-3.046 42.406-8.732 62.134l0.39-1.581v1.28c-5.685 19.946-13.694 37.379-23.928 53.24l0.467-0.773c-11.090 17.063-24.741 31.565-40.097 43.509-26.233 20.209-57.959 34.627-92.549 40.76l-1.294 0.19c-38.078 6.885-81.905 10.822-126.652 10.822-5.413 0-10.811-0.058-16.196-0.172l0.803 0.014h-112.185c-5.971 0-14.929 0.853-22.607 2.132-3.194 0.516-6.061 1.408-8.737 2.644l0.206-0.085v3.839c0 2.986 0 5.546 1.28 7.251 0.853 2.132 2.132 4.266 4.266 6.398 2.559 2.132 5.119 4.266 7.678 5.119l6.398 1.28 81.899-3.412c23.034-0.853 46.921 2.986 69.529 9.385 21.755 6.398 43.082 14.929 62.277 23.461 25.559 11.289 47.587 24.563 67.682 40.203l-0.712-0.533c38.479 29.013 66.993 69.411 80.651 116.151l0.396 1.58c6.825 24.314 10.237 49.48 10.237 75.074-0.011 31.827-6.922 62.037-19.319 89.218l0.551-1.348h51.187c13.65 0 24.314 11.090 24.314 25.167zM390.173 161.134c22.607 4.266 46.068 5.119 59.718 5.119 47.618-0.142 94.471-1.224 141.085-3.23l-7.145 0.245c23.701-1.661 44.102-3.783 64.304-6.529l-5.013 0.558 15.783-3.412c10.237-2.986 20.475-7.251 29.006-14.503 11.090-9.385 17.489-21.328 17.489-38.817-0.048-11.881-2.554-23.164-7.036-33.385l0.211 0.54c-14.929-32.419-53.32-49.055-94.269-56.733-36.258-7.251-74.648-8.105-96.403-8.105-20.902 0-56.733 0.853-90.857 7.678-38.39 7.251-75.074 23.034-89.577 53.746-4.070 8.484-6.448 18.443-6.448 28.959 0 0.917 0.018 1.83 0.054 2.737l-0.004-0.13c0.062 9.76 2.256 18.991 6.14 27.273l-0.168-0.4c11.090 22.181 36.684 33.272 63.557 38.39zM518.14 849.173c30.712-14.503 46.068-52.467 53.746-92.99l0.427-2.132c4.848-27.571 7.618-59.317 7.618-91.71s-2.771-64.139-8.089-95.013l0.471 3.302c-7.251-36.258-22.181-70.809-51.187-86.165-5.546-2.986-11.944-5.119-18.342-6.825-5.194-1.124-11.159-1.768-17.276-1.768s-12.082 0.644-17.833 1.867l0.558-0.099c-6.437 1.336-12.142 3.399-17.435 6.147l0.372-0.176c-28.153 14.929-42.656 48.201-49.48 84.032-4.392 26.768-6.902 57.619-6.902 89.055 0 33.328 2.82 65.995 8.236 97.78l-0.481-3.415c7.678 42.656 23.887 83.179 55.879 98.108 8.313 4.048 18.084 6.414 28.409 6.414 0.51 0 1.019-0.006 1.527-0.017l-0.076 0.001c10.82-0.057 21.078-2.407 30.329-6.588l-0.47 0.19z" />
<glyph unicode="&#xe90e;" glyph-name="idea" d="M731.307 669.014c-58.743 55.388-138.143 89.429-225.493 89.429-181.703 0-329.002-147.299-329.002-329.002 0-94.353 39.718-179.429 103.346-239.421l0.163-0.152c16.213-15.787 28.587-34.56 36.267-55.467h391.253c7.68 20.907 20.053 40.107 35.84 55.893 60.196 59.574 97.471 142.208 97.471 233.548 0 97.31-42.307 184.738-109.53 244.896l-0.315 0.277zM658.347 387.414c-0.001 0-0.002 0-0.002 0-20.115 0-36.45 16.186-36.691 36.244v0.023c0 60.56-49.093 109.653-109.653 109.653v0c-20.265 0-36.693 16.428-36.693 36.693s16.428 36.693 36.693 36.693v0c101.090 0 183.040-81.95 183.040-183.040v0c0-20.265-16.428-36.693-36.693-36.693v0zM328.96 24.747c0 0 0-0.001 0-0.001 0-60.796 49.284-110.080 110.080-110.080 0.15 0 0.3 0 0.45 0.001h145.897c0 0 0.001 0 0.001 0 60.646 0 109.837 49.042 110.079 109.63v36.716h-366.933v-36.693zM987.307 463.36h-36.267c-20.265 0-36.693-16.428-36.693-36.693s16.428-36.693 36.693-36.693v0h36.267c20.265 0 36.693 16.428 36.693 36.693s-16.428 36.693-36.693 36.693v0zM892.16 609.707c6.4 0 12.8 1.707 18.347 4.693l31.573 18.347c12.764 5.929 21.455 18.639 21.455 33.38 0 20.265-16.428 36.693-36.693 36.693-8.057 0-15.508-2.597-21.561-6.999l0.105 0.073-31.573-17.92c-10.851-6.507-18-18.206-18-31.575 0-20.143 16.231-36.496 36.329-36.692h0.019zM712.96 774.827c5.28-3.116 11.634-4.957 18.418-4.957 13.617 0 25.502 7.417 31.834 18.432l0.094 0.178 17.92 31.573c4.329 5.947 6.926 13.398 6.926 21.455 0 20.265-16.428 36.693-36.693 36.693-14.74 0-27.45-8.691-33.285-21.229l-0.094-0.226-18.347-31.573c-3.183-5.323-5.064-11.743-5.064-18.601 0-13.488 7.277-25.275 18.119-31.652l0.172-0.094zM512 829.014c20.265 0 36.693 16.428 36.693 36.693v0 36.267c0 20.265-16.428 36.693-36.693 36.693s-36.693-16.428-36.693-36.693v0-36.267c0-20.265 16.428-36.693 36.693-36.693v0zM260.693 788.48c6.463-11.050 18.272-18.355 31.787-18.355 20.27 0 36.701 16.432 36.701 36.701 0 6.755-1.825 13.084-5.008 18.52l0.094-0.173-18.347 31.573c-5.929 12.764-18.639 21.455-33.38 21.455-20.265 0-36.693-16.428-36.693-36.693 0-8.057 2.597-15.508 6.999-21.561l-0.073 0.105 17.92-31.573zM150.187 677.547l-31.573 18.347c-4.473 2.093-9.713 3.314-15.238 3.314-20.265 0-36.693-16.428-36.693-36.693 0-12.208 5.962-23.024 15.133-29.694l0.105-0.073 31.573-18.347c5.263-3.090 11.592-4.915 18.347-4.915 20.27 0 36.701 16.432 36.701 36.701 0 13.515-7.305 25.323-18.181 31.693l-0.173 0.094zM109.653 426.667c0 20.265-16.428 36.693-36.693 36.693h-36.267c-20.265 0-36.693-16.428-36.693-36.693s16.428-36.693 36.693-36.693v0h36.267c20.265 0 36.693 16.428 36.693 36.693v0zM113.92 238.934l-32-18.347c-12.764-5.929-21.455-18.639-21.455-33.38 0-20.265 16.428-36.693 36.693-36.693 8.057 0 15.508 2.597 21.561 6.999l-0.105-0.073 31.573 17.92c11.050 6.463 18.355 18.272 18.355 31.787 0 20.27-16.432 36.701-36.701 36.701-6.755 0-13.084-1.825-18.52-5.008l0.173 0.094zM941.653 220.587l-31.147 18.347c-5.263 3.090-11.592 4.915-18.347 4.915-20.27 0-36.701-16.432-36.701-36.701 0-13.515 7.305-25.323 18.181-31.693l0.173-0.094 31.573-17.92c5.947-4.329 13.398-6.926 21.455-6.926 20.265 0 36.693 16.428 36.693 36.693 0 14.74-8.691 27.45-21.229 33.285l-0.226 0.094z" />
<glyph unicode="&#xe90f;" glyph-name="influencer" d="M703.575 402.442c84.599-59.089 139.349-155.857 139.733-265.434v-0.060c0-9.316-3.726-18.631-10.713-25.618-6.708-6.609-15.917-10.695-26.080-10.713h-589.679c-10.167 0.018-19.375 4.104-26.088 10.717l0.004-0.004c-6.615 6.51-10.713 15.56-10.713 25.567 0 0.018 0 0.036 0 0.053v-0.003c0.385 109.637 55.135 206.405 138.684 264.8l1.049 0.695c47.629-52.213 115.954-84.846 191.901-84.846s144.272 32.633 191.718 84.642l0.183 0.204zM82.226 435.047c1.863-3.26 4.658-6.055 6.986-8.85 24.613-26.586 55.442-47.061 90.199-59.148l1.56-0.472c-32.775-44.382-56.583-97.428-67.617-155.012l-0.386-2.421h-39.125c-22.358 0-43.318 10.247-57.756 27.015-13.507 15.837-18.631 37.262-14.905 57.756 11.564 56.489 40.645 104.851 81.222 140.417l0.289 0.248zM941.122 435.047c41.92-37.262 70.798-86.635 81.511-141.131 4.192-20.494-1.397-41.92-14.905-57.756-13.973-16.768-35.399-27.015-57.756-27.015h-39.591c-11.42 60.006-35.229 113.051-68.75 158.494l0.747-1.060c35.399 12.11 67.072 32.605 92.224 60.085l3.26 3.726 3.26 4.658zM511.674 752.708c0.555 0.006 1.211 0.010 1.868 0.010 100.351 0 181.794-80.957 182.579-181.122l0.001-0.075c-0.786-100.24-82.229-181.198-182.58-181.198-0.657 0-1.313 0.003-1.968 0.010l0.1-0.001c-0.555-0.006-1.209-0.010-1.865-0.010-100.515 0-182.059 81.222-182.583 181.613v0.050c1.048 100.039 82.388 180.731 182.576 180.731 0.658 0 1.316-0.003 1.973-0.010l-0.1 0.001zM253.633 716.377c13.973 0 28.412-1.863 41.92-6.055-26.035-38.794-41.554-86.544-41.554-137.918 0-39.82 9.322-77.462 25.904-110.864l-0.653 1.454c-15.837-10.713-30.276-22.358-43.783-35.399-51.039 6.072-93.578 37.484-115.128 81.116l-0.385 0.862c-21.426 45.181-18.166 97.814 9.316 139.734 26.549 41.92 73.593 67.538 123.897 67.072zM769.716 716.377c50.304 0 97.814-25.152 124.829-67.072s30.276-94.553 8.85-139.734c-21.935-44.493-64.475-75.905-114.815-81.909l-0.698-0.068c-13.507 13.042-27.947 24.686-43.783 35.399 16.105 31.627 25.563 68.966 25.618 108.509v0.018c0 49.372-14.439 97.814-41.92 138.802 13.507 4.192 27.947 6.055 41.92 6.055z" />
<glyph unicode="&#xe910;" glyph-name="minus" d="M72.621 493.112c-1.772 0.167-3.832 0.263-5.913 0.263-36.842 0-66.708-29.866-66.708-66.708s29.866-66.708 66.708-66.708c2.082 0 4.142 0.095 6.175 0.282l-0.261-0.019h878.758c1.772-0.167 3.832-0.263 5.913-0.263 36.842 0 66.708 29.866 66.708 66.708s-29.866 66.708-66.708 66.708c-2.082 0-4.142-0.095-6.175-0.282l0.261 0.019h-878.758z" />
<glyph unicode="&#xe911;" glyph-name="pin" d="M189.599 345.907l1.706-2.986 7.249-10.662 278.049-399.162c7.97-11.257 20.942-18.516 35.609-18.516s27.638 7.259 35.518 18.381l0.091 0.135 277.196 399.162 7.676 10.662 1.706 2.559c38.767 59.001 61.836 131.324 61.836 209.034 0 212.208-172.029 384.237-384.237 384.237s-384.237-172.029-384.237-384.237c0-77.71 23.070-150.034 62.734-210.494l-0.899 1.458zM511.999 713.511c88.322 0 159.921-71.599 159.921-159.921s-71.599-159.921-159.921-159.921v0c-88.322 0-159.921 71.599-159.921 159.921s71.599 159.921 159.921 159.921v0z" />
<glyph unicode="&#xe912;" glyph-name="plus" d="M512.263 928.219c-36.768 0-66.708-29.94-66.708-66.708v-371.358h-372.934c-1.772 0.167-3.832 0.263-5.913 0.263-36.842 0-66.708-29.866-66.708-66.708s29.866-66.708 66.708-66.708c2.082 0 4.142 0.095 6.175 0.282l-0.262-0.019h372.934v-371.358c3.135-34.208 31.686-60.795 66.445-60.795s63.31 26.586 66.426 60.533l0.019 0.262v371.358h372.934c1.772-0.167 3.832-0.263 5.913-0.263 36.842 0 66.708 29.866 66.708 66.708s-29.866 66.708-66.708 66.708c-2.082 0-4.142-0.095-6.175-0.282l0.262 0.019h-372.934v371.358c0 36.768-29.414 66.708-66.183 66.708z" />
<glyph unicode="&#xe913;" glyph-name="puzzle" d="M766.060 207.501h-76.431c-14.453 86.268-88.566 151.193-177.843 151.193s-163.39-64.927-177.696-150.138l-0.146-1.056h-75.578c-0.256 0.002-0.558 0.003-0.862 0.003-59.899 0-108.456-48.557-108.456-108.456 0-0.451 0.003-0.903 0.008-1.353l-0.001 0.068v-73.443c0-29.035 11.529-56.79 32.024-77.712 20.496-20.496 47.824-32.024 76.859-32.024h508.121c0.129-0.001 0.282-0.001 0.434-0.001 59.899 0 108.456 48.557 108.456 108.456 0 0.45-0.003 0.901-0.008 1.35l0.001-0.068v73.869c0 29.035-11.529 56.79-32.024 77.286-19.575 19.917-46.756 32.305-76.831 32.452h-0.028zM766.060 829.63h-88.388c-28.67 64.758-92.367 109.121-166.425 109.121-24.343 0-47.565-4.793-68.777-13.486l1.21 0.438c-43.924-18.505-78.298-52.464-96.899-94.907l-0.455-1.166h-88.388c-0.129 0.001-0.282 0.001-0.434 0.001-59.899 0-108.456-48.557-108.456-108.456 0-0.45 0.003-0.901 0.008-1.35l-0.001 0.068v-219.901c0-29.035 11.529-56.79 32.024-77.286 20.496-20.923 47.824-32.452 76.859-32.452h108.883c0.001 0 0.002 0 0.003 0 20.045 0 36.295 16.249 36.295 36.295 0 0.15-0.001 0.3-0.003 0.449v-0.023c0 39.283 20.923 75.578 54.228 95.22 15.596 9.253 34.38 14.721 54.442 14.721s38.846-5.468 54.943-14.995l-0.501 0.274c34.159-19.642 54.655-55.936 54.655-95.22 0-9.821 3.843-19.215 10.675-25.62 6.832-7.259 15.799-11.101 25.62-11.101h108.883c0.129-0.001 0.282-0.001 0.434-0.001 59.899 0 108.456 48.557 108.456 108.456 0 0.45-0.003 0.901-0.008 1.35l0.001-0.068v219.901c0 29.035-11.529 56.79-32.024 77.712-19.632 19.76-46.814 31.999-76.854 32.024h-0.005z" />
<glyph unicode="&#xe914;" glyph-name="search" d="M998.4 60.587l-216.32 216.32c44.284 66.208 70.671 147.647 70.671 235.249 0 235.759-191.121 426.88-426.88 426.88s-426.88-191.121-426.88-426.88c0-235.759 191.121-426.88 426.88-426.88 87.602 0 169.041 26.388 236.802 71.648l-1.553-0.976 217.6-216.32c15.421-15.342 36.683-24.826 60.16-24.826 47.113 0 85.306 38.193 85.306 85.306 0 23.636-9.613 45.027-25.142 60.476l-0.004 0.004zM128 511.787c0 165.067 133.813 298.88 298.88 298.88s298.88-133.813 298.88-298.88v0c0-165.067-133.813-298.88-298.88-298.88s-298.88 133.813-298.88 298.88v0z" />
<glyph unicode="&#xe915;" glyph-name="social-media" d="M299.933 676.392v-199.514c0.924-90.295 73.876-163.247 164.082-164.169l0.087-0.001h255.999v-11.231c0-72.671-60.118-133.45-132.129-133.45h-320.412l-99.096-119.576c-24.774-29.729-44.924-22.132-44.924 16.516v104.051c-68.843 5.601-122.701 62.444-123.539 132.045l-0.001 0.084v244.438c0 72.671 60.449 130.477 132.789 130.477h167.142zM929.526 823.054c0.295 0.003 0.644 0.005 0.993 0.005 51.628 0 93.481-41.853 93.481-93.481 0-0.234-0.001-0.468-0.002-0.702v0.036-254.347c0-52.521-42.281-95.793-94.472-95.793h-7.597l0.331-140.057c0-38.648-19.819-45.915-44.593-16.186l-130.807 156.242h-284.407c-52.256 0.373-94.475 42.821-94.475 95.13 0 0.233 0.001 0.466 0.002 0.699v-0.036 254.347c0.187 52.033 42.412 94.142 94.471 94.142 0 0 0 0 0.001 0v0zM538.425 642.038c-0.002 0-0.003 0-0.005 0-23.716 0-42.942-19.225-42.942-42.942 0-0.232 0.002-0.465 0.005-0.695l-0.001 0.035c0.365-23.568 19.374-42.576 42.907-42.941l0.035-0.001c23.716 0 42.942 19.225 42.942 42.942v0c0.001 0.098 0.002 0.215 0.002 0.331 0 23.783-19.187 43.085-42.925 43.271h-0.018zM703.917 642.038c-0.002 0-0.003 0-0.005 0-23.716 0-42.942-19.225-42.942-42.942 0-0.232 0.002-0.465 0.005-0.695l-0.001 0.035c0.365-23.568 19.374-42.576 42.907-42.941l0.035-0.001c23.716 0 42.942 19.225 42.942 42.942v0c0.001 0.098 0.002 0.215 0.002 0.331 0 23.783-19.187 43.085-42.925 43.271h-0.018zM869.737 642.038c-0.002 0-0.003 0-0.005 0-23.716 0-42.942-19.225-42.942-42.942 0-0.232 0.002-0.465 0.005-0.695l-0.001 0.035c0.365-23.568 19.374-42.576 42.907-42.941l0.035-0.001c23.716 0 42.942 19.225 42.942 42.942v0c0 0.002 0 0.003 0 0.005 0 23.849-19.147 43.225-42.906 43.597l-0.035 0.001z" />
<glyph unicode="&#xe916;" glyph-name="campaigns" d="M729.615 117.366v-166.41c0-11.521-5.547-22.614-15.361-29.442-5.634-4.264-12.76-6.829-20.484-6.829-0.149 0-0.297 0.001-0.446 0.003h0.023c-4.12 0.043-8.080 0.664-11.823 1.784l0.302-0.078-97.286 32.855-97.286-32.855c-3.356-1.147-7.223-1.81-11.245-1.81-7.969 0-15.33 2.6-21.281 6.999l0.098-0.069c-9.342 6.65-15.362 17.44-15.362 29.637 0 0.082 0 0.163 0.001 0.245v-0.013 165.983c38.139-34.823 89.117-56.155 145.076-56.155s106.937 21.331 145.244 56.306l-0.168-0.151zM765.883 938.75c0.001 0 0.002 0 0.003 0 60.093 0 108.807-48.714 108.807-108.807 0-0.3-0.001-0.6-0.004-0.899v0.046-695.084c-0.418-47.024-30.142-87-71.776-102.582l-0.763-0.25v249.189c0 3.84 0 7.253-0.853 11.094-3.6 77.486-46.889 144.111-109.876 180.353l-1.064 0.565c-30.392 17.395-66.801 27.654-105.607 27.654s-75.215-10.258-106.666-28.21l1.059 0.557c-67.453-38.274-112.221-109.606-112.221-191.393 0-0.218 0-0.435 0.001-0.653v0.034-256.016h-108.807c-0.001 0-0.002 0-0.003 0-60.093 0-108.807 48.714-108.807 108.807 0 0.3 0.001 0.6 0.004 0.899v-0.046 695.084c0.703 59.981 48.899 108.476 108.696 109.659l0.111 0.002zM584.539 426.718c80.218 0 145.076-65.284 145.076-146.356s-64.857-146.356-145.076-146.356c-80.176 0.241-145.078 65.292-145.078 145.502 0 0.3 0.001 0.6 0.003 0.9v-0.046c0 81.072 64.857 146.356 145.076 146.356zM693.345 646.039h-362.69c-12.801 0-24.749-6.827-31.575-18.348-3.015-5.212-4.794-11.466-4.794-18.134s1.779-12.923 4.888-18.312l-0.094 0.177c6.827-11.521 18.774-18.348 31.575-18.348h362.69c12.801 0 24.749 6.827 31.575 18.348 3.015 5.212 4.794 11.466 4.794 18.134s-1.779 12.923-4.888 18.312l0.094-0.177c-6.359 11.037-18.092 18.348-31.532 18.348-0.015 0-0.030 0-0.046 0h0.002zM693.345 792.394h-362.69c-12.801 0-24.749-6.827-31.575-18.348-3.015-5.212-4.794-11.466-4.794-18.134s1.779-12.923 4.888-18.312l-0.094 0.177c6.827-11.521 18.774-18.348 31.575-18.348h362.69c12.801 0 24.749 6.827 31.575 18.348 3.015 5.212 4.794 11.466 4.794 18.134s-1.779 12.923-4.888 18.312l0.094-0.177c-6.359 11.037-18.092 18.348-31.532 18.348-0.015 0-0.030 0-0.046 0h0.002z" />
<glyph unicode="&#xe917;" glyph-name="chart" d="M72.96 353.707h146.347c40.533 0 73.387-40.533 73.387-73.387v-292.693c0-40.107-32.853-72.96-73.387-72.96h-146.347c-40.107 0-72.96 40.533-72.96 72.96v292.693c0 40.533 32.853 73.387 72.96 73.387zM439.040 645.974h145.92c40.533 0 73.387-40.107 73.387-72.96v-585.813c0-40.107-32.853-72.96-73.387-72.96h-145.493c-40.533 0-73.387 40.533-73.387 72.96v585.813c0 40.533 32.853 72.96 73.387 72.96zM804.693 938.667h146.347c40.107 0 72.96-40.533 72.96-72.96v-878.507c0-40.107-32.853-72.96-72.96-72.96h-146.347c-40.533 0-73.387 40.533-73.387 72.96v878.933c0 40.107 32.853 72.96 73.387 72.96z" />
<glyph unicode="&#xe918;" glyph-name="close" d="M999.218 910.521c-35.286 35.286-92.487 35.286-127.773 0l-357.763-357.763-357.763 357.763c-35.286 35.286-92.487 35.286-127.773 0s-35.286-92.487 0-127.773l357.763-357.763-357.763-357.763c-35.286-35.286-35.286-92.487 0-127.773s92.487-35.286 127.773 0l357.763 357.763 357.763-357.763c35.286-35.286 92.487-35.286 127.773 0s35.286 92.487 0 127.773l-357.763 357.763 357.763 357.763c35.286 35.286 35.286 92.487 0 127.773z" />
</font>
</defs>
</svg>
